Kategorie

Ostatnio Komentowane
Twój adres IP to 95.181.176.49
Peter V Brett - Cykl Demoniczny (tom 1-9) [epub, mobi, pdf] [PL] [Wolv]
Przez: pus
Dnia: 26/03/2017 19:22:11
Formuła 1 GP Australii - Kwalifikacje + Wyścig (25-26 03 2017) [TVRip XviD] [PL]
Przez: henlud
Dnia: 26/03/2017 18:35:01
Formuła 1 GP Australii - Kwalifikacje + Wyścig (25-26 03 2017) [TVRip XviD] [PL]
Przez: henlud
Dnia: 26/03/2017 18:34:30
Formuła 1 GP Australii - Kwalifikacje + Wyścig (25-26 03 2017) [TVRip XviD] [PL]
Przez: henlud
Dnia: 26/03/2017 18:34:18

Detale Torrenta

Rewolucja-Revolution (1985)[BDRip 1080p x264 by alE13 AC3/DTS] [Lektor] [ENG]

S: 1L: 0P: 18
Dodał: alE13 Tracker:
Kondycja:Dodane:2017-03-06 11:00:10
Kategoria:BluRay / X264 / HD  »  Przygodowe
Język:Lektor PL  Lektor PLPobrali:POBRALI PLIK
Obserwuj:OBSERWUJ TORRENTAStaty:UAKTUALNIJ TRACKER
Download:
Pobierz Torrent
Raport:RAPORTUJ TORRENTA


http://www.imdb.com/title/tt0089913/
http://www.filmweb.pl/film/Rewolucja-1985-9155

Plik zawiera sample.

reżyseria: Hugh Hudson
scenariusz: Robert Dillon
gatunek: Przygodowy,Dramat historyczny
produkcja: Norwegia,Wielka Brytania
premiera: 25-12-1985
muzyka:         John Corigliano
zdjęcia:        Bernard Lutic
czas:           2h 6min

opis:

New York trapper Tom Dobb becomes an unwilling participant in the American Revolution after
his son Ned is drafted into the Army by the villainous Sergeant Major Peasy. Tom attempts to find
his son, and eventually becomes convinced that he must take a stand and fight for the freedom
of the Colonies, alongside the aristocratic rebel Daisy McConnahay. As Tom undergoes his change of heart,
the events of the war unfold in large-scale grandeur.

Rok 1776. Dwie potęgi, Anglia i Francja, od ponad osiemdziesięciu lat walczą o panowanie nad "nowym światem".
Tymczasem Ameryka ogłasza deklarację niepodległości i wypowiada tym samym posłuszeństwo królowi Jerzemu.
Armia angielska ląduje na Long Island aby zdławić rebelię. Film historię ukazuje oczami cywila-żołnierza, Toma.






obsada:

Al Pacino, Donald Sutherland, Nastassja Kinski

dane techniczne:

Revolution (1985)-alE13.mkv
Format                      : Matroska
Format version              : Version 4 / Version 2
File size                   : 9.08 GiB
Duration                    : 2 h 6 min
Overall bit rate            : 10.3 Mb/s
Movie name                  : Revolution (1985)-alE13
Encoded date                : UTC 2017-03-06 09:22:48
Writing application         : mkvmerge v7.9.0 ('Birds') 64bit
Writing library             : libebml v1.3.1 + libmatroska v1.4.2
Cover                       : Yes
Attachments                 : cover.jpg

Video
ID                          : 2
Format                      : AVC
Format/Info                 : Advanced Video Codec
Format profile              : [email protected]
Format settings, CABAC      : Yes
Format settings, ReFrames   : 2 frames
Codec ID                    : V_MPEG4/ISO/AVC
Duration                    : 2 h 6 min
Bit rate                    : 8 058 kb/s
Width                       : 1 920 pixels
Height                      : 792 pixels
Display aspect ratio        : 2.40:1
Frame rate mode             : Constant
Frame rate                  : 23.976 (24000/1001) FPS
Color space                 : YUV
Chroma subsampling          : 4:2:0
Bit depth                   : 8 bits
Scan type                   : Progressive
Bits/(Pixel*Frame)          : 0.221
Stream size                 : 7.12 GiB (78%)
Title                       : Revolution (1985)-alE13
Writing library             : x264 core 142
Default                     : Yes
Forced                      : No
Color range                 : Limited
Color primaries             : BT.709
Transfer characteristics    : BT.709
Matrix coefficients         : BT.709

Audio #1
ID                          : 1
Format                      : AC-3
Format/Info                 : Audio Coding 3
Codec ID                    : A_AC3
Duration                    : 2 h 5 min
Bit rate                    : 256 kb/s
Channel(s)                  : 2 channels
Sampling rate               : 48.0 kHz
Frame rate                  : 31.241 FPS (1536 spf)
Compression mode            : Lossy
Stream size                 : 230 MiB (2%)
Title                       : Revolution (1985)-alE13_AC3
Language                    : Polish
Default                     : Yes
Forced                      : No

Audio #2
ID                          : 3
Format                      : AC-3
Format/Info                 : Audio Coding 3
Mode extension              : CM (complete main)
Format settings, Endianness : Big
Codec ID                    : A_AC3
Duration                    : 2 h 6 min
Bit rate mode               : Constant
Bit rate                    : 448 kb/s
Channel(s)                  : 6 channels
Channel positions           : Front: L C R, Side: L R, LFE
Sampling rate               : 48.0 kHz
Frame rate                  : 31.250 FPS (1536 spf)
Compression mode            : Lossy
Stream size                 : 405 MiB (4%)
Title                       : Revolution (1985)-alE13_AC3
Language                    : English
Default                     : No
Forced                      : No

Audio #3
ID                          : 4
Format                      : DTS
Format/Info                 : Digital Theater Systems
Mode                        : 16
Format settings, Endianness : Big
Codec ID                    : A_DTS
Duration                    : 2 h 6 min
Bit rate mode               : Constant
Bit rate                    : 1 509 kb/s
Channel(s)                  : 6 channels
Channel positions           : Front: L C R, Side: L R, LFE
Sampling rate               : 48.0 kHz
Frame rate                  : 93.750 FPS (512 spf)
Bit depth                   : 24 bits
Compression mode            : Lossy
Stream size                 : 1.33 GiB (15%)
Title                       : Revolution (1985)-alE13_DTS
Language                    : English
Default                     : No
Forced                      : No
PODOBNE TORRENTY
Rewolucja - Revolution (1985) [CUSTOM.DVDRip.XviD-RETRO] [Lektor PL] Goście, goście III: Rewolucja-Les Visiteurs-La Revolution (2016)[BRRip 1080p x264 by alE13 AC3/DTS][Napisy PL/Eng/Fre][Fre] Goście, goście III: Rewolucja - The Visitors: Bastille Day / Les Visiteurs: La Révolution *2016* [BDRip] [XviD-KiT] [Lektor PL] [zibi6248] Srebrna Kula-Silver Bullet (1985)[BDRip 1080p by alE13 AC3][Lektor i Napisy PL/Eng][Eng] Rewolucja kobiet w Jemenie - Womens Revolution in Yemen *2013* [DVBRip.XviD] [Lektor PL] Che - Rewolucja / Che: Part One (2008) [720p] [BDRip] [XviD] [AC3-ELiTE] [Lektor PL]
Szczegóły torrenta
TRACKER
Tracker Podstawowy: udp://tracker.opentrackr.org:1337/announce

Multitrackery:

udp://tracker.opentrackr.org:1337/announce
udp://tracker.leechers-paradise.org:6969/announce
http://tracker.torrentyorg.pl/announce
udp://tracker.ilibr.org:80/announce
udp://tracker.zer0day.to:1337/announce
udp://tracker.coppersurfer.tk:6969/announce
udp://tracker.opentrackr.org:1337/announce
udp://p4p.arenabg.ch:1337/announce
udp://tracker.leechers-paradise.org:6969/announce
http://tracker.torrentyorg.pl/announce

UAKTUALNIENIE
06/03/2017 10:00:13 (Jeśeli nie widac seeda kliknij na [uaktualnij] by odswieżyć statystyki).
[Lub sprawdź programem do pobierania torrentów, ponieważ niektóre trackery nie wyświetlają statystyk]
10 pliki
 
KOMENTARZE


Metal011/03/2017 10.48.10 Cytuj
Status użytkownika:   11/03/2017 10.48.10  TOP

DODAJ KOMENTARZ

Zaloguj się aby dodawać komentarze !!!



Wstecz

[ Script Execution time: 0.4870 sec. ] - [ GZIP: disabled ]